Discovery Plus – Il mistero della Valle dei Re (2021) .mkv DLMux 1080p E-AC3+AC3 ITA

Mirrors: EasyBytez & NitroFlare

Un viaggio nella la Valle dei Re, il sito archeologico cuore della cultura egizia, alla scoperta dei suoi segreti.

Titolo originale: Il mistero della Valle dei Re
Genere: Documentario
Nazione: Egitto

[color=#397B21][size=4]Screen[/size][/color]

[url=https://postimg.cc/QVRcHzJ9][/url]
[url=https://postimg.cc/MvVVRY9s][/url]
[url=https://postimg.cc/LJSfVZ7m][/url]

[color=#397B21][size=4]Report Avinaptic[/size][/color]

[spoiler]General
Unique ID : 256400643497476234833294445166948616212 (0xC0E4F7BBA8A0DD35405E4CD76C718814)
Complete name : Discovery Plus – Il mistero della Valle dei Re (2021) .mkv DLMux 1080p E-AC3+AC3 ITADiscovery Plus – Il mistero della Valle dei Re (2021) .mkv DLMux 1080p E-AC3+AC3 ITA.mkv
Format : Matroska
Format version : Version 4
File size : 4.12 GiB
Duration : 1 h 28 min
Overall bit rate : 6 694 kb/s
Encoded date : UTC 2021-04-06 07:08:07
Writing application : mkvmerge v52.0.0 (‘Secret For The Mad’) 64-bit
Writing library : libebml v1.4.1 + libmatroska v1.6.2

Video
ID : 1
Format : AVC
Format/Info : Advanced Video Codec
Format profile : [email protected]
Format settings : CABAC / 4 Ref Frames
Format settings, CABAC : Yes
Format settings, Reference frames : 4 frames
Codec ID : V_MPEG4/ISO/AVC
Duration : 1 h 28 min
Bit rate : 6 400 kb/s
Width : 1 920 pixels
Height : 1 080 pixels
Display aspect ratio : 16:9
Frame rate mode : Constant
Frame rate : 25.000 FPS
Color space : YUV
Chroma subsampling : 4:2:0
Bit depth : 8 bits
Scan type : Progressive
Bits/(Pixel*Frame) : 0.123
Stream size : 3.92 GiB (95%)
Writing library : x264 core 157
Encoding settings : cabac=1 / ref=3 / deblock=1:0:0 / analyse=0x3:0x133 / me=hex / subme=9 / psy=1 / psy_rd=1.00:0.00 / mixed_ref=1 / me_range=16 / chroma_me=1 / trellis=2 / 8x8dct=1 / cqm=0 / deadzone=21,11 / fast_pskip=1 / chroma_qp_offset=-2 / threads=34 / lookahead_threads=2 / sliced_threads=0 / nr=0 / decimate=1 / interlaced=0 / bluray_compat=0 / constrained_intra=0 / bframes=3 / b_pyramid=2 / b_adapt=2 / b_bias=0 / direct=3 / weightb=1 / open_gop=0 / weightp=2 / keyint=50 / keyint_min=26 / scenecut=0 / intra_refresh=0 / rc_lookahead=60 / rc=cbr / mbtree=1 / bitrate=6400 / ratetol=1.0 / qcomp=0.60 / qpmin=0 / qpmax=69 / qpstep=4 / vbv_maxrate=6400 / vbv_bufsize=32000 / nal_hrd=none / filler=0 / ip_ratio=1.40 / aq=1:1.00
Default : Yes
Forced : No

Audio #1
ID : 2
Format : AC-3
Format/Info : Audio Coding 3
Commercial name : Dolby Digital
Codec ID : A_AC3
Duration : 1 h 28 min
Bit rate mode : Constant
Bit rate : 160 kb/s
Channel(s) : 2 channels
Channel layout : L R
Sampling rate : 48.0 kHz
Frame rate : 31.250 FPS (1536 SPF)
Compression mode : Lossy
Delay relative to video : -21 ms
Stream size : 101 MiB (2%)
Title : AC3 5.1 @ DOLBY
Language : Italian
Service kind : Complete Main
Default : Yes
Forced : No

Audio #2
ID : 3
Format : AAC LC
Format/Info : Advanced Audio Codec Low Complexity
Codec ID : A_AAC-2
Duration : 1 h 28 min
Bit rate : 160 kb/s
Channel(s) : 2 channels
Channel layout : L R
Sampling rate : 48.0 kHz
Frame rate : 46.875 FPS (1024 SPF)
Compression mode : Lossy
Delay relative to video : 38 ms
Stream size : 101 MiB (2%)
Title : E-AC3 5.1 @ DOLBY
Language : English
Default : No
Forced : No[/spoiler]

Link Download:

Download da EasyBytez & NitroFlare

(Visited 1 times, 1 visits today)